ACG狗狗 | 动漫资源分享

基本信息

共享用户: zzl001

发布时间: 2018/08/08 08:56:00

更新时间: 无更新

分享情况: 做种 0, 下载 0, 完成 0

健 康 度: 0

点击此处下载种子

使用磁力链下载

Tracker信息

Announce:

http://tracker.acg.gg:2710/announce

Scrape:

http://tracker.acg.gg:2710/scrape

资源介绍

簡介: 

 THX https://nyaa.si/view/1059334

  Media Info   Video ID                          : 1 Format                      : AVC Format/Info                 : Advanced Video Codec Format profile              : High@L4.1 Format settings             : CABAC / 4 Ref Frames Format settings, CABAC      : Yes Format settings, ReFrames   : 4 frames Codec ID                    : V_MPEG4/ISO/AVC Duration                    : 19 min 54 s Bit rate                    : 5 141 kb/s Width                       : 1 920 pixels Height                      : 1 080 pixels Display aspect ratio        : 16:9 Frame rate mode             : Constant Frame rate                  : 23.976 (24000/1001) FPS Color space                 : YUV Chroma subsampling          : 4:2:0 Bit depth                   : 8 bits Scan type                   : Progressive Bits/(Pixel*Frame)          : 0.103 Stream size                 : 732 MiB (65%) Writing library             : x264 core 155 r2901 7d0ff22 Encoding settings           : cabac=1 / ref=4 / deblock=1:0:0 / analyse=0x3:0x133 / me=umh / subme=10 / psy=1 / psy_rd=1.00:0.00 / mixed_ref=1 / me_range=24 / chroma_me=1 / trellis=2 / 8x8dct=1 / cqm=0 / deadzone=21,11 / fast_pskip=1 / chroma_qp_offset=-2 / threads=9 / lookahead_threads=1 / sliced_threads=0 / nr=0 / decimate=1 / interlaced=0 / bluray_compat=0 / constrained_intra=0 / bframes=8 / b_pyramid=2 / b_adapt=2 / b_bias=0 / direct=3 / weightb=1 / open_gop=0 / weightp=2 / keyint=240 / keyint_min=23 / scenecut=40 / intra_refresh=0 / rc_lookahead=60 / rc=crf / mbtree=1 / crf=16.0 / qcomp=0.60 / qpmin=0 / qpmax=69 / qpstep=4 / vbv_maxrate=62500 / vbv_bufsize=78125 / crf_max=0.0 / nal_hrd=none / filler=0 / ip_ratio=1.40 / aq=1:1.00 Default                     : Yes Forced                      : No   Audio #1 ID                          : 2 Format                      : FLAC Format/Info                 : Free Lossless Audio Codec Codec ID                    : A_FLAC Duration                    : 19 min 54 s Bit rate mode               : Variable Bit rate                    : 1 423 kb/s Channel(s)                  : 2 channels Channel positions           : Front: L R Sampling rate               : 48.0 kHz Frame rate                  : 11.719 FPS (4096 SPF) Bit depth                   : 24 bits Stream size                 : 203 MiB (18%) Writing library             : libFLAC 1.2.1 (UTC 2007-09-17) Language                    : Japanese Default                     : Yes Forced                      : No   Audio #2 ID                          : 3 Format                      : FLAC Format/Info                 : Free Lossless Audio Codec Codec ID                    : A_FLAC Duration                    : 19 min 54 s Bit rate mode               : Variable Bit rate                    : 1 339 kb/s Channel(s)                  : 2 channels Channel positions           : Front: L R Sampling rate               : 48.0 kHz Frame rate                  : 11.719 FPS (4096 SPF) Bit depth                   : 24 bits Stream size                 : 191 MiB (17%) Writing library             : libFLAC 1.2.1 (UTC 2007-09-17) Language                    : French Default                     : No Forced                      : No   Text ID                          : 4 Format                      : PGS Muxing mode                 : zlib Codec ID                    : S_HDMV/PGS Codec ID/Info               : Picture based subtitle format used on BDs/HD-DVDs Duration                    : 19 min 44 s Bit rate                    : 21.3 kb/s Count of elements           : 440 Stream size                 : 3.02 MiB (0%) Language                    : French Default                     : Yes Forced                      : No  

文件信息 文件总数:1,文件总大小:1.1GB

 
  • 视频文件 Dragon Ball OVA Episode of Bardock.mkv(1.1GB)
 

网友评论(0)

正在加载评论,请稍候......
发表我的看法(评论内容长度最多允许 1000 字)
评论内容
验证码