ACG狗狗 | 动漫资源分享

基本信息

共享用户: nyaa

所属联盟: nyaa搬运组

发布时间: 2016/03/01 00:00:40

更新时间: 无更新

点击此处下载种子

使用磁力链下载

下载本站资源,您必须安装相应的P2P下载软件。我们推荐使用BitComet正式版下载BT资源,eMule下载电驴资源。

该资源由网友 nyaa 提供,如果侵犯了您的权益请与我们联系。Email: i@acg.gg

Tracker信息

Announce:

http://tracker.acg.gg:2710/announce

Scrape:

http://tracker.acg.gg:2710/scrape

Announce list:
  • http://tracker.acg.gg:1578/announce
  • http://tracker.acg.gg:2710/announce
  • http://open.nyaatorrents.info:6544/announce
  • http://open.nyaatorrents.info:6544/announce

资源介绍

本资源由nyaa搬运组进行搬运=v=更多本组搬运资源请点击 http://bt.acg.gg/team-6-1.html 查看 .png]Image

General
Format : Matroska
Format version : Version 2
File size : 8.02 GiB
Duration : 1h 34mn
Overall bit rate mode : Variable
Overall bit rate : 12.1 Mbps
Encoded date : UTC 2016-02-26 06:12:52
Writing application : mkvmerge v8.5.2 ('Crosses') 32bit
Writing library : libebml v1.3.3 + libmatroska v1.4.4

Video
ID : 1
Format : AVC
Format/Info : Advanced Video Codec
Format profile : High 10@L5.1
Format settings, CABAC : Yes
Format settings, ReFrames : 16 frames
Codec ID : V_MPEG4/ISO/AVC
Duration : 1h 34mn
Bit rate : 9 801 Kbps
Width : 1 920 pixels
Height : 1 080 pixels
Display aspect ratio : 16:9
Frame rate mode : Constant
Frame rate : 59.940 (59940/1000) fps
Original frame rate : 59.940 (60000/1001) fps
Color space : YUV
Chroma subsampling : 4:2:0
Bit depth : 10 bits
Scan type : Progressive
Bits/(Pixel*Frame) : 0.079
Stream size : 6.49 GiB (81%)
Writing library : x264 core 148 r2638 7599210
Encoding settings : cabac=1 / ref=16 / deblock=1:0:0 / analyse=0x3:0x133 / me=umh / subme=10 / psy=1 / psy_rd=1.00:0.00 / mixed_ref=1 / me_range=24 / chroma_me=1 / trellis=2 / 8x8dct=1 / cqm=0 / deadzone=21,11 / fast_pskip=1 / chroma_qp_offset=-2 / threads=6 / lookahead_threads=1 / sliced_threads=0 / nr=0 / decimate=1 / interlaced=0 / bluray_compat=0 / constrained_intra=0 / bframes=8 / b_pyramid=2 / b_adapt=2 / b_bias=0 / direct=3 / weightb=1 / open_gop=0 / weightp=2 / keyint=599 / keyint_min=59 / scenecut=40 / intra_refresh=0 / rc_lookahead=60 / rc=crf / mbtree=1 / crf=15.0 / qcomp=0.60 / qpmin=0 / qpmax=81 / qpstep=4 / ip_ratio=1.40 / aq=1:1.00
Default : Yes
Forced : No

Audio
ID : 2
Format : FLAC
Format/Info : Free Lossless Audio Codec
Codec ID : A_FLAC
Duration : 1h 34mn
Bit rate mode : Variable
Bit rate : 2 308 Kbps
Channel(s) : 8 channels
Channel positions : Front: L C R, Side: L R, Back: L R, LFE
Sampling rate : 48.0 KHz
Frame rate : 41.667 fps (1152 spf)
Bit depth : 24 bits
Stream size : 1.53 GiB (19%)
Writing library : libFLAC 1.3.1 (UTC 2014-11-25)
Language : English
Default : Yes
Forced : No

文件信息 文件总数:1,文件总大小:8.0GB

 
  • Folder Inside.Out.2015.1080p.60FPS.BDrip.x264.FLAC.7.1-NKBK
    • 视频文件 Inside.Out.2015.1080p.60FPS.BDrip.x264.FLAC.7.1-NKBK.mkv(8.0GB)
 

网友评论(0)

正在加载评论,请稍候......
发表我的看法(评论内容长度最多允许 1000 字)
评论内容
验证码