ACG狗狗 | 动漫资源分享

基本信息

共享用户: hongblue

发布时间: 2018/01/02 05:11:00

更新时间: 无更新

分享情况: 做种 2, 下载 0, 完成 7

健 康 度: 10

点击此处下载种子

使用磁力链下载

Tracker信息

Announce:

http://tracker.acg.gg:2710/announce

Scrape:

http://tracker.acg.gg:2710/scrape

资源介绍

簡介: 

Chapter附贈 / Chapters for each song included
地上波副音軌附贈 / Second audio track included感謝自由にCaps提供片源


 

General

Complete name : Y:\67th\[EggPain-Raws] 67th NHK Kouhaku Uta Gassen (NHK 1280x720 x264 YUV420P10 AAC).mp4

Format : MPEG-4

Format profile : Base Media

Codec ID : isom (isom/avc1)

File size : 9.85 GiB

Duration : 4h 24mn

Overall bit rate mode : Variable

Overall bit rate : 5 320 Kbps

Encoded date : UTC 2017-01-01 17:30:23

Tagged date : UTC 2017-01-01 17:30:23

Video

ID : 1

Format : AVC

Format/Info : Advanced Video Codec

Format profile : High 10@L5.1

Format settings, CABAC : Yes

Format settings, ReFrames : 12 frames

Codec ID : avc1

Codec ID/Info : Advanced Video Coding

Duration : 4h 24mn

Bit rate : 4 935 Kbps

Maximum bit rate : 28.9 Mbps

Width : 1 280 pixels

Height : 720 pixels

Display aspect ratio : 16:9

Frame rate mode : Constant

Frame rate : 29.970 (30000/1001) fps

Color space : YUV

Chroma subsampling : 4:2:0

Bit depth : 10 bits

Scan type : Progressive

Bits/(Pixel*Frame) : 0.179

Stream size : 9.13 GiB (93%)

Writing library : x264 core 148 r2692+46 0f71ed5 7mod [10-bit@all X86_64]

Encoding settings : cabac=1 / ref=12 / deblock=1:-1:-1 / analyse=0x3:0x113 / me=umh / subme=11 / psy=1 / fade_compensate=0.00 / psy_rd=0.70:0.15 / mixed_ref=1 / me_range=32 / chroma_me=1 / trellis=2 / 8x8dct=1 / cqm=0 / deadzone=21,11 / fast_pskip=0 / chroma_qp_offset=-3 / threads=22 / lookahead_threads=5 / sliced_threads=0 / nr=0 / decimate=1 / interlaced=0 / bluray_compat=0 / constrained_intra=0 / fgo=0 / bframes=10 / b_pyramid=2 / b_adapt=2 / b_bias=0 / direct=1 / weightb=1 / open_gop=0 / weightp=2 / keyint=480 / keyint_min=1 / scenecut=40 / intra_refresh=0 / rc=crf / mbtree=0 / crf=19.0000 / qcomp=0.60 / qpmin=0:0:0 / qpmax=40:40:40 / qpstep=4 / ip_ratio=1.40 / pb_ratio=1.30 / aq=3:1.00 / aq-sensitivity=10.00 / aq-factor=1.00:1.00:1.00 / aq2=0 / aq3=0

Encoded date : UTC 2017-01-01 17:30:23

Tagged date : UTC 2017-01-01 17:32:02

Audio #1

ID : 2

Format : AAC

Format/Info : Advanced Audio Codec

Format profile : LC

Codec ID : 40

Duration : 4h 24mn

Bit rate mode : Variable

Bit rate : 204 Kbps

Maximum bit rate : 259 Kbps

Channel(s) : 2 channels

Channel positions : Front: L R

Sampling rate : 48.0 KHz

Frame rate : 46.875 fps (1024 spf)

Compression mode : Lossy

Stream size : 387 MiB (4%)

Language : Japanese

Encoded date : UTC 2016-12-31 17:15:59

Tagged date : UTC 2017-01-01 17:32:02

Audio #2

ID : 3

Format : AAC

Format/Info : Advanced Audio Codec

Format profile : LC

Codec ID : 40

Duration : 4h 24mn

Bit rate mode : Variable

Bit rate : 174 Kbps

Maximum bit rate : 241 Kbps

Channel(s) : 2 channels

Channel positions : Front: L R

Sampling rate : 48.0 KHz

Frame rate : 46.875 fps (1024 spf)

Compression mode : Lossy

Stream size : 330 MiB (3%)

Title : 地上波副音軌

Language : Japanese

Encoded date : UTC 2016-12-31 17:29:59

Tagged date : UTC 2017-01-01 17:32:02

Menu

00:00:00.000 : Opening

00:02:36.390 : オープニング:「Fly into the sun」

00:06:38.198 : 関ジャニ∞ -「ズッコケ男道~紅白で夢を歌おう~」

00:09:42.449 : PUFFY -「PUFFY 20周年紅白スペシャル」

00:13:22.969 : AAA -「ハリケーン・リリ、ボストン・マリ」

00:15:32.165 : E-girls -「DANCE WITH ME NOW!」

00:22:43.262 : 欅坂 46 -「サイレントマジョリティー」

00:26:22.714 : 三山ひろし -「四万十川~けん玉大使編~」

00:29:43.282 : 山内惠介 -「流転の波止場~究極の貴公子編~」

00:33:46.391 : miwa -「結 -ゆい-」

00:38:05.917 : Sexy Zone -「よびすて 紅白 '16」

00:41:55.313 : 天童よしみ -「あんたの花道」

00:45:59.423 : SEKAI NO OWARI -「Hey Ho from RPG」

00:50:44.375 : 市川由紀乃 -「心かさねて」

00:54:05.509 : 三代目 J Soul Brothers -「Welcome to TOKYO」

00:57:53.403 : 香西かおり -「すき~真田丸スペシャル Ver.~」

01:02:03.353 : 椎名林檎 -「青春の瞬き -FROM NEO TOKYO 2016-」

01:08:22.632 : 福田こうへい -「東京五輪音頭」

01:12:01.017 : 絢香 -「三日月」

01:16:36.792 : 郷ひろみ -「言えないよ」

01:20:50.112 : V6 -「Smile!メドレー」

01:24:43.579 : 水森かおり -「越後水原~白鳥飛翔~」

01:28:48.356 : いきものがかり -「SAKURA」

01:33:56.731 : ゆず -「見上げてごらん夜の星を ~ぼくらのうた~」

01:37:58.840 : 特別企画:「紅白 HALFTIME SHOW」渡辺直美・ピコ太郎

01:41:54.909 : RADWIMPS -「前前前世 [original ver.]」

01:50:04.698 : 乃木坂 46 -「サヨナラの意味」

01:57:40.420 : 福山雅治 -「2016 スペシャルメドレー」

02:03:17.550 : 島津亜矢 - 「川の流れのように」

02:07:20.266 : RADIO FISH -「PERFECT HUMAN」

02:13:26.699 : 西野カナ -「Dear Bride」

02:19:10.008 : 桐谷健太 -「海の声~みんなの海の声バージョン~」

02:23:36.808 : AI -「みんながみんな英雄」

02:27:30.008 : AKB48 -「夢の紅白選抜SPメドレー」

02:34:07.205 : 五木ひろし -「九頭竜川」

02:39:38.335 : 有村架純 プレゼンツ スペシャル企画 -「ふるさと」

02:48:43.480 : KinKi Kids -「硝子の少年」

02:53:18.455 : Perfume -「FLASH」

02:59:12.976 : 星野源 -「恋」

03:05:19.108 : 大竹しのぶ -「愛の讃歌」

03:10:28.751 : 坂本冬美 -「夜桜お七」

03:18:15.150 : TOKIO -「宙船(そらふね)」

03:22:17.626 : 松田聖子 -「薔薇のように咲いて 桜のように散って」

03:30:19.006 : X JAPAN -「紅」

03:38:43.143 : 高橋真梨子 -「ごめんね…」

03:46:44.424 : THE YELLOW MONKEY -「JAM」

03:55:54.507 : 氷川きよし -「白雲の城」

04:00:24.944 : 宇多田ヒカル -「花束を君に」

04:06:11.790 : 石川さゆり - 天城越え」

04:11:44.756 : 嵐 - 「嵐 × 紅白スペシャルメドレー」、「A・RA・SHI」、「Happiness」、「One Love」

04:23:02.943 : Ending -「蛍の光」

 

隨心所欲 | 看心情接片| Will do requests if in the mood | https://eggpain-raws.org/ | QQ: 439291323


文件信息 文件总数:1,文件总大小:11.8GB

 
  • 视频文件 [EggPain-Raws&自由にCaps] 68th NHK Kouhaku Uta Gassen (NHK 1280x720 HEVC YUV420P10 AACx2).mp4(11.8GB)
 

网友评论(0)

正在加载评论,请稍候......
发表我的看法(评论内容长度最多允许 1000 字)
评论内容
验证码