ACG狗狗 | 动漫资源分享

基本信息

共享用户: mqzlp

发布时间: 2018/05/10 19:37:00

更新时间: 无更新

点击此处下载种子

使用磁力链下载

下载本站资源,您必须安装相应的P2P下载软件。我们推荐使用BitComet正式版下载BT资源,eMule下载电驴资源。

该资源由网友 mqzlp 提供,如果侵犯了您的权益请与我们联系。Email: i@acg.gg

Tracker信息

Announce:

http://tracker.acg.gg:2710/announce

Scrape:

http://tracker.acg.gg:2710/scrape

Announce list:
  • http://tracker.acg.gg:1578/announce
  • http://tracker.acg.gg:2710/announce
  • http://tr.bangumi.moe:6969/announce
  • http://t.nyaatracker.com/announce
  • http://open.acgtracker.com:1096/announce
  • http://open.nyaatorrents.info:6544/announce
  • http://t2.popgo.org:7456/annonce
  • http://share.camoe.cn:8080/announce
  • http://opentracker.acgnx.se/announce
  • http://tracker.acgnx.se/announce
  • http://nyaa.tracker.wf:7777/announce
  • http://tracker.indrasub.org:80/announce
  • https://tracker.indrasub.org:443/announce
  • http://opentracker.acgnx.com:6869/announce
  • http://t.acg.rip:6699/announce
  • https://tr.bangumi.moe:9696/announce
  • http://bt.dmhy.net/annonuce
  • http://share.dmhy.org/annonuce
  • http://tracker.kamigami.org:2710/announce
  • http://tracker2.torrentino.com/announce
  • http://tracker3.torrentino.com/announce
  • http://t2.popgo.org:7456/announce
  • udp://tracker.openbittorrent.com:80/announce
  • udp://tracker.publicbt.com:80/announce
  • udp://tracker.prq.to:80/announce
  • udp://104.238.198.186:8000/announce
  • http://104.238.198.186:8000/announce
  • http://94.228.192.98/announce
  • http://tracker.btcake.com/announce
  • http://tracker.ktxp.com:6868/announce
  • http://tracker.ktxp.com:7070/announce
  • http://bt.sc-ol.com:2710/announce
  • http://btfile.sdo.com:6961/announce
  • https://t-115.rhcloud.com/only_for_ylbud
  • http://exodus.desync.com:6969/announce
  • udp://coppersurfer.tk:6969/announce
  • udp://open.demonii.com:1337/announce
  • udp://tracker.ex.ua:80/announce
  • http://pubt.net:2710/announce
  • http://tracker.tfile.me/announce
  • http://bigfoot1942.sektori.org:6969/announce
  • udp://bt.sc-ol.com:2710/announce

资源介绍

簡介: 

如在下载或观看过程中遇到任何问题,请将详细的问题描述发送至 support@indrasub.org 告知我们,我们将在合理范围内提供帮助。

如对我们的作品有任何意见或建议,欢迎联系 report@indrasub.org 向我们反馈,我们向您的宝贵意见表示诚挚的感谢。


关于此压制版本画质的说明


我们提供了原盘和压制成片画面对比示例,请下载种子资源中的 sample.png 查看,左侧为原盘,右侧为压制成片。
此压制版本为对片源画质进行降噪、边缘抗锯齿、去色带等预处理后,以不损失视觉上清晰度的质量压制的,供收藏外挂字幕观看的版本。
下面简单说明此版本的处理效果和发现的问题,我们希望尽量客观描述我们压制版本的画面特性,方便大家选择自己喜欢的版本。
处理
绝大多数画面场景处理后质量比原盘更高,纹理质感更强,原盘压缩引入的噪声产生的雾气感有所削减,同时处理特别对所有边缘区域进行了修复,突出了边缘的表现,在视觉上提升画面清晰度。
HEVC 压缩编码本身没有导致任何视觉上的画质损失。
问题
特定暗部区域线条细节丢失,在线条和周围区域颜色非常接近时尤其显著
以及背景暗部的大面积渐变区域可能产生轻微的额外不规则色带。
本身非常模糊的远景因降噪处理导致轻微的纹理细节损失,此问题目前业界无可靠方案。


Mediainfo


Input #0, matroska,webm, from '[INDRA] Fate stay night -Heaven's Feel- I.presage flower [1080P][BDRip][HEVC 8bit AAC 5.1].mkv': Metadata: title : [INDRA] Fate stay night -Heaven's Feel- I.presage flower [1080P][BDRip][HEVC 8bit AAC 5.1] encoder : libebml v1.3.5 + libmatroska v1.4.8 creation_time : 2018-05-10T07:53:43.000000Z Duration: 02:00:35.48, start: 0.000000, bitrate: 2798 kb/s Stream #0:0: Video: hevc (Main), yuv420p(tv), 1920x1080, SAR 1:1 DAR 16:9, 23.98 fps, 23.98 tbr, 1k tbn, 23.98 tbc (default) Metadata: title : [INDRA] Fate stay night -Heaven's Feel- I.presage flower [1080P][BDRip][HEVC 8bit AAC 5.1] BPS-eng : 2137948 DURATION-eng : 02:00:35.437000000 NUMBER_OF_FRAMES-eng: 173477 NUMBER_OF_BYTES-eng: 1933624039 _STATISTICS_WRITING_APP-eng: mkvmerge v22.0.0 ('At The End Of The World') 64-bit _STATISTICS_WRITING_DATE_UTC-eng: 2018-05-10 07:53:43 _STATISTICS_TAGS-eng: BPS DURATION NUMBER_OF_FRAMES NUMBER_OF_BYTES Stream #0:1(jpn): Audio: aac (LC), 48000 Hz, 5.1, fltp (default) Metadata: title : [INDRA] Fate stay night -Heaven's Feel- I.presage flower [1080P][BDRip][HEVC 8bit AAC 5.1] BPS-eng : 658262 DURATION-eng : 02:00:35.456000000 NUMBER_OF_FRAMES-eng: 339162 NUMBER_OF_BYTES-eng: 595353843 _STATISTICS_WRITING_APP-eng: mkvmerge v22.0.0 ('At The End Of The World') 64-bit _STATISTICS_WRITING_DATE_UTC-eng: 2018-05-10 07:53:43 _STATISTICS_TAGS-eng: BPS DURATION NUMBER_OF_FRAMES NUMBER_OF_BYTES

STORY

少年は少女を守りたい。そう、思った。 魔術師〈マスター〉と英霊〈サーヴァント〉が、あらゆる願いをかなえる願望機「聖杯」をめぐり戦う――「聖杯戦争」が起きて10年、 冬木市で再び戦争が始まった。前回の「聖杯戦争」の参加者である衛宮切嗣の養子・衛宮士郎は遺志を継ぎ、戦うことを決意する。
士郎のそばには、彼を慕う少女――間桐桜がいた。彼女は毎朝、毎晩士郎の家に通うと朝食と夕食を作り、天涯孤独だった士郎と優しい日々を過ごしていた。だが「聖杯戦争」が始まると、冬木の町に流れる空気が変わった。あちこちで殺人事件が起き、不穏な空気が流れ始める。士郎は桜を自宅に泊めることを決意した。
士郎は召喚したサーヴァント・セイバーとともに、魔術師の遠坂凛と同盟を結び「聖杯戦争」に臨む。
だが、その戦いは暗躍する者たちによって大きくきしみ、歪み始めていた。

STAFF

原作: TYPE-MOON、奈須きのこ
导演: 須藤友徳
脚本: 桧山彬(ufotable)
分镜: 三浦貴博、須藤友徳
演出: 碇谷敦、恒松圭、三浦貴博
音乐: 梶浦由記
人物原案: 武内崇
总作画监督: 須藤友徳


[INDRA]虚数学区研究协会


大家好,我们是一群来自 IT 圈的 ACG 爱好者。虽然我们因对动漫的兴趣而聚,但我们对待作品有着程序般的严谨态度。

我们希望为圈内的同仁提供以亲力参与来延伸自己对于动漫的兴趣爱好的一隅偏安之地。同时,我们也希望能为改进字幕组的工作流程和效率出一份力。

如对加入我们感兴趣,可以移步我们的 HR 公告: https://www.indrasub.org/join-us

祝观看愉快!

注1:本组织发布的所有资源均用于技术交流的目的,请以符合你当地法律法规的形式下载或使用,我们不接受任何关于版权(大陆称著作权)的资源移除请求。We do not accept any form of requests associated with DMCA or any laws similar to it.

注2:本组尚属成立初期,分流能力有限,为保证您和大家的下载体验,请使用 BitTorrent / μTorrent / Tixati 等 BT 协议专用客户端或 eMule 下载资源,不建议使用 迅雷 / QQ旋风 / 百度网盘 等工具。


文件信息 文件总数:2,文件总大小:2.4GB

 
  • Folder [INDRA] Fate stay night -Heaven's Feel- I.presage flower [1080P][BDRip][HEVC 8bit AAC 5.1]
    • 视频文件 [INDRA] Fate stay night -Heaven's Feel- I.presage flower [1080P][BDRip][HEVC 8bit AAC 5.1].mkv(2.4GB)
    • 图片文件 sample.png(37.8MB)
 

eMule资源

  Bytes
        0Bytes

网友评论(0)

正在加载评论,请稍候......
发表我的看法(评论内容长度最多允许 1000 字)
评论内容
验证码