[Mabors-Raws] ヨスガノソラ /缘之空(BDrip 1920x1080 HEVC-YUV420P10 FLAC GB&BIG5)[内封澄空字幕] - ACG狗狗 | 动漫资源分享 - 动漫下载|BT|漫画|动画|游戏
ACG狗狗 | 动漫资源分享

基本信息

共享用户: zxcvb12

发布时间: 2018/04/24 10:12:00

更新时间: 无更新

点击此处下载种子

使用磁力链下载

下载本站资源,您必须安装相应的P2P下载软件。我们推荐使用BitComet正式版下载BT资源,eMule下载电驴资源。

该资源由网友 zxcvb12 提供,如果侵犯了您的权益请与我们联系。Email: i@acg.gg

Tracker信息

Announce:

http://tracker.acg.gg:2710/announce

Scrape:

http://tracker.acg.gg:2710/scrape

Announce list:
  • http://tracker.acg.gg:1578/announce
  • http://tracker.acg.gg:2710/announce
  • http://t.snow-raws.win/announce.php
  • http://open.acgtracker.com:1096/announce
  • http://nyaa.tracker.wf:7777/announce
  • http://opentracker.acgnx.com:6869/announce
  • udp://tracker.openbittorrent.com:80/announce
  • udp://tracker.publicbt.com:80/announce
  • udp://tracker.prq.to:80/announce
  • udp://104.238.198.186:8000/announce
  • http://104.238.198.186:8000/announce
  • http://94.228.192.98/announce
  • http://share.dmhy.org/annonuce
  • http://tracker.btcake.com/announce
  • http://tracker.ktxp.com:6868/announce
  • http://tracker.ktxp.com:7070/announce
  • http://bt.sc-ol.com:2710/announce
  • http://btfile.sdo.com:6961/announce
  • https://t-115.rhcloud.com/only_for_ylbud
  • http://tr.bangumi.moe:6969/announce
  • http://exodus.desync.com:6969/announce
  • http://tracker3.torrentino.com/announce
  • http://tracker2.torrentino.com/announce
  • udp://open.demonii.com:1337/announce
  • udp://tracker.ex.ua:80/announce
  • http://pubt.net:2710/announce
  • http://tracker.tfile.me/announce
  • http://bigfoot1942.sektori.org:6969/announce
  • http://t.nyaatracker.com/announce
  • udp://bt.sc-ol.com:2710/announcee
  • udp://tracker.openbittorrent.com:80/announce
  • udp://tracker.publicbt.com:80/announce
  • udp://tracker.prq.to:80/announce
  • udp://104.238.198.186:8000/announce
  • http://104.238.198.186:8000/announce
  • http://94.228.192.98/announce
  • http://share.dmhy.org/annonuce
  • http://tracker.btcake.com/announce
  • http://tracker.ktxp.com:6868/announce
  • http://tracker.ktxp.com:7070/announce
  • http://bt.sc-ol.com:2710/announce
  • http://open.acgtracker.com:1096/announce
  • http://btfile.sdo.com:6961/announce
  • https://t-115.rhcloud.com/only_for_ylbud
  • http://tr.bangumi.moe:6969/announce
  • http://exodus.desync.com:6969/announce
  • udp://coppersurfer.tk:6969/announce
  • http://tracker3.torrentino.com/announce
  • http://tracker2.torrentino.com/announce
  • udp://open.demonii.com:1337/announce
  • udp://tracker.ex.ua:80/announce
  • http://pubt.net:2710/announce
  • http://tracker.tfile.me/announce
  • http://bigfoot1942.sektori.org:6969/announce
  • http://t.nyaatracker.com/announce
  • udp://bt.sc-ol.com:2710/announce

资源介绍

簡介: 

 

 

image
STORY
远离市区的乡村,奥木染。
春日野悠带着他的妹妹穹,前往了该地。
那里有他们祖父的家,那是他们年幼时一到暑假就去的充满回忆的家。
因不幸的事故失去双亲的两人,搬迁到了现已没人居住的祖父的家,决定在那里生活。
悠需要挑战不习惯的家务活,并照顾宅属性极强,没有生活能力的穹。
在那里,以前常陪他们玩的邻居姐姐依媛奈绪,转校第一天就搭上了悠的中里亮平,神社的巫女兼管理员天女目瑛以及她的朋友渚一叶,都热情地迎接了他们。

STAFF
原作:Sphere
キャラクター原案:橋本タカシ·鈴平ひろ
監督:高橋丈夫
シリーズ構成:荒川稔久
キャラクターデザイン:神本兼利
音響監督:岩浪美和
音楽:三輪 学·Bruno Wen-li
音楽制作:スターチャイルドレコード
アニメーション制作:feel.
製作:奥木染町内会

CAST
春日野 悠:下野 紘
春日野 穹:田口宏子
天女目 瑛:阪田佳代
依媛奈緒:いのくちゆか
渚 一葉:小野涼子
乃木坂初佳:岡嶋妙 
伊福部やひろ:田中涼子 
倉永 梢:峰岸由香里
中里亮平:中國卓郎
ほか

官网
http://www.starchild.co.jp/special/yosuganosora/

引用

General
Unique ID                   : 304403617905260632599213278033357124032 (0xE50201192C3745EB8DC44C11FAA131C0)
Complete name               : X:\[Mabors-Raws] ヨスガノソラ (BDrip 1920x1080 HEVC-YUV420P10 FLAC GB&BIG5)\[Mabors-Raws] [ヨスガノソラ 春日野穹] EP01-EP05(BDrip 1920x1080 HEVC-YUV420P10 FLAC x3 GB&BIG5).mkv
Format                      : Matroska
Format version              : Version 4 / Version 2
File size                   : 5.49 GiB
Duration                    : 2 h 10 min
Overall bit rate mode       : Variable
Overall bit rate            : 6 047 kb/s
Encoded date                : UTC 2018-04-06 05:48:02
Writing application         : mkvmerge v21.0.0 ('Tardigrades Will Inherit The Earth') 64-bit
Writing library             : libebml v1.3.5 + libmatroska v1.4.8
Attachments                 : 方正小标宋_GBK.TTF / 方正粗倩繁体.ttf / 方正卡通繁体.TTF / 方正字迹-吕建德字体.TTF / 华康少女字体.ttf / DFHsm7.ttc / DFPop5.ttc / FZCQJW.TTF / FZKATJW.TTF / fzzyGBK.TTF / 方正行楷_GBK.ttf / 方正像素14.TTF

Video
ID                          : 1
Format                      : HEVC
Format/Info                 : High Efficiency Video Coding
Format profile              : Main 10@L4@Main
Codec ID                    : V_MPEGH/ISO/HEVC
Duration                    : 2 h 10 min
Bit rate                    : 4 115 kb/s
Width                       : 1 920 pixels
Height                      : 1 080 pixels
Display aspect ratio        : 16:9
Frame rate mode             : Constant
Frame rate                  : 23.976 (24000/1001) FPS
Color space                 : YUV
Chroma subsampling          : 4:2:0
Bit depth                   : 10 bits
Bits/(Pixel*Frame)          : 0.083
Stream size                 : 3.74 GiB (68%)
Writing library             : x265 2.6g77bf4a4d2+17:[Windows][GCC 7.1.0][64 bit] Yuuki 10bit
Encoding settings           : rc=crf / crf=17.0000 / qcomp=0.70 / qpstep=4 / aq-mode=1 / aq-strength=1.00 / cbqpoffs=0 / crqpoffs=0 / ipratio=1.40 / pbratio=1.30 / psy-rd=4.00 / psy-rdoq=6.00 / deblock=-1:-1 / ref=5 / bframes=8 / b-adapt=2 / bframe-bias=0 / b-pyramid / b-intra / weightp / weightb / min-keyint=1 / max-keyint=150 / rc-lookahead=70 / scenecut=40 / max-cu-size=32 / min-cu-size=8 / me=2 / subme=7 / merange=48 / rdoq-level=1 / rd=5 / rdpenalty=1 / ----- / cutree / sao / rect / no-amp / open-gop / wpp / no-pmode / no-pme / no-psnr / no-ssim / nr-intra=0 / nr-inter=0 / no-constrained-intra / strong-intra-smoothing / max-tu-size=32 / tu-inter-depth=3 / tu-intra-depth=3 / limit-tu=4 / qg-size=32 / qpmax=69 / qpmin=0 / ----- / cpuid=1173503 / frame-threads=3 / numa-pools=12 / log-level=2 / input-csp=1 / input-res=1920x1080 / interlace=0 / level-idc=0 / high-tier=1 / uhd-bd=0 / no-allow-non-conformance / no-repeat-headers / no-aud / no-hrd / info / hash=0 / no-temporal-layers / lookahead-slices=0 / no-intra-refresh / dynamic-rd=0.00 / no-ssim-rd / signhide / no-tskip / max-merge=4 / limit-refs=1 / limit-modes / temporal-mvp / no-analyze-src-pics / no-sao-non-deblock / no-early-skip / rskip / no-fast-intra / no-tskip-fast / no-cu-lossless / no-splitrd-skip / no-rd-refine / analysis-reuse-mode=0 / no-lossless / zone-count=0 / no-strict-cbr / no-rc-grain / no-const-vbv / sar=0 / overscan=0 / videoformat=5 / range=0 / colorprim=2 / transfer=2 / colormatrix=1 / chromaloc=0 / display-window=0 / max-cll=0,0 / min-luma=0 / max-luma=1023 / log2-max-poc-lsb=8 / vui-timing-info / vui-hrd-info / slices=1 / no-opt-qp-pps / no-opt-ref-list-length-pps / no-multi-pass-opt-rps / scenecut-bias=0.05 / no-opt-cu-delta-qp / no-aq-motion / no-hdr / no-hdr-opt / no-dhdr10-opt / analysis-reuse-level=5 / scale-factor=0 / refine-intra=0 / refine-inter=0 / refine-mv=0 / no-limit-sao / ctu-info=0 / no-lowpass-dct / refine-mv-type=0 / copy-pic=1
Language                    : Japanese
Default                     : Yes
Forced                      : No
Color range                 : Limited
Matrix coefficients         : BT.709

Audio #1
ID                          : 2
Format                      : FLAC
Format/Info                 : Free Lossless Audio Codec
Codec ID                    : A_FLAC
Duration                    : 2 h 10 min
Bit rate mode               : Variable
Bit rate                    : 612 kb/s
Channel(s)                  : 2 channels
Channel positions           : Front: L R
Sampling rate               : 48.0 kHz
Frame rate                  : 11.719 FPS (4096 SPF)
Bit depth                   : 16 bits
Stream size                 : 569 MiB (10%)
Title                       : BD版
Writing library             : libFLAC 1.2.1 (UTC 2007-09-17)
Language                    : Japanese
Default                     : Yes
Forced                      : No

Audio #2
ID                          : 3
Format                      : FLAC
Format/Info                 : Free Lossless Audio Codec
Codec ID                    : A_FLAC
Duration                    : 2 h 10 min
Bit rate mode               : Variable
Bit rate                    : 612 kb/s
Channel(s)                  : 2 channels
Channel positions           : Front: L R
Sampling rate               : 48.0 kHz
Frame rate                  : 11.719 FPS (4096 SPF)
Bit depth                   : 16 bits
Stream size                 : 569 MiB (10%)
Title                       : 通常版
Writing library             : libFLAC 1.2.1 (UTC 2007-09-17)
Language                    : Japanese
Default                     : No
Forced                      : No

Audio #3
ID                          : 4
Format                      : FLAC
Format/Info                 : Free Lossless Audio Codec
Codec ID                    : A_FLAC
Duration                    : 2 h 10 min
Bit rate mode               : Variable
Bit rate                    : 630 kb/s
Channel(s)                  : 2 channels
Channel positions           : Front: L R
Sampling rate               : 48.0 kHz
Frame rate                  : 11.719 FPS (4096 SPF)
Bit depth                   : 16 bits
Stream size                 : 586 MiB (10%)
Title                       : TV版
Writing library             : libFLAC 1.2.1 (UTC 2007-09-17)
Language                    : Japanese
Default                     : No
Forced                      : No

Text #1
ID                          : 5
Format                      : ASS
Codec ID                    : S_TEXT/ASS
Codec ID/Info               : Advanced Sub Station Alpha
Duration                    : 2 h 9 min
Bit rate                    : 105 b/s
Count of elements           : 1741
Compression mode            : Lossless
Stream size                 : 100 KiB (0%)
Title                       : 简体中文
Language                    : Chinese
Default                     : Yes
Forced                      : No

Text #2
ID                          : 6
Format                      : ASS
Codec ID                    : S_TEXT/ASS
Codec ID/Info               : Advanced Sub Station Alpha
Duration                    : 2 h 9 min
Bit rate                    : 105 b/s
Count of elements           : 1741
Compression mode            : Lossless
Stream size                 : 100 KiB (0%)
Title                       : 繁体中文
Language                    : Chinese
Default                     : No
Forced                      : No

Menu
00:00:00.000                : zh:遥远的记忆 标题
00:01:29.047                : zh:遥远的记忆 片首曲
00:02:59.054                : zh:遥远的记忆 A片段
00:10:20.829                : zh:遥远的记忆 B片段
00:20:29.854                : zh:遥远的记忆 番组插入曲
00:21:59.777                : zh:遥远的记忆 赠品
00:23:59.772                : zh:遥远的记忆 片尾曲
00:25:29.820                : zh:遥远的记忆 下集预告
00:25:45.794                : zh:罪孽的少女们 标题
00:26:44.853                : zh:罪孽的少女们 片首曲
00:28:14.818                : zh:罪孽的少女们 A片段
00:35:16.823                : zh:罪孽的少女们 B片段
00:46:07.807                : zh:罪孽的少女们 番组插入曲
00:47:37.813                : zh:罪孽的少女们 赠品
00:49:44.732                : zh:罪孽的少女们 片尾曲
00:51:14.780                : zh:罪孽的少女们 下集预告
00:51:30.796                : zh:鸟之穹呜 标题
00:52:13.839                : zh:鸟之穹呜 片首曲
00:53:43.804                : zh:鸟之穹呜 A片段
01:02:59.776                : zh:鸟之穹呜 B片段
01:12:19.835                : zh:鸟之穹呜 番组插入曲
01:13:49.759                : zh:鸟之穹呜 赠品
01:15:29.734                : zh:鸟之穹呜 片尾曲
01:16:59.782                : zh:鸟之穹呜 下集预告
01:17:15.798                : zh:偷欢的二人 标题
01:18:12.855                : zh:偷欢的二人 片首曲
01:19:42.820                : zh:偷欢的二人 A片段
01:26:50.831                : zh:偷欢的二人 B片段
01:37:53.826                : zh:偷欢的二人 番组插入曲
01:39:23.749                : zh:偷欢的二人 赠品
01:41:14.735                : zh:偷欢的二人 片尾曲
01:42:44.784                : zh:偷欢的二人 下集预告
01:43:00.800                : zh:向着悠远的天穹 标题
01:43:31.831                : zh:向着悠远的天穹 片首曲
01:45:01.795                : zh:向着悠远的天穹 A片段
01:52:32.788                : zh:向着悠远的天穹 B片段
02:04:45.812                : zh:向着悠远的天穹 番组插入曲
02:06:15.735                : zh:向着悠远的天穹 赠品
02:08:29.744                : zh:向着悠远的天穹 片尾曲

 


文件信息 文件总数:69,文件总大小:20.8GB

 
  • Folder [Mabors-Raws] ヨスガノソラ (BDrip 1920x1080 HEVC-YUV420P10 FLAC GB&BIG5)
    • Folder Menu(Vol.1)
      • 图片文件 2_10_normal_stop.png(4.8MB)
      • 图片文件 2_12_normal_start.png(4.8MB)
      • 图片文件 2_4_normal_start.png(4.9MB)
      • 图片文件 2_5_normal_start.png(4.8MB)
      • 图片文件 2_6_normal_start.png(4.9MB)
      • 图片文件 2_7_normal_start.png(4.9MB)
    • Folder Menu(Vol.2)
      • 图片文件 2_10_normal_start.png(3.9MB)
      • 图片文件 2_12_normal_start.png(3.9MB)
      • 图片文件 2_4_normal_start.png(4.2MB)
      • 图片文件 2_5_normal_start.png(4.1MB)
      • 图片文件 2_6_normal_start.png(4.2MB)
      • 图片文件 2_7_normal_start.png(4.2MB)
    • Folder Menu(Vol.3)
      • 图片文件 2_10_normal_start.png(4.5MB)
      • 图片文件 2_12_normal_start.png(4.5MB)
      • 图片文件 2_4_normal_start.png(4.6MB)
      • 图片文件 2_5_normal_start.png(4.5MB)
      • 图片文件 2_6_normal_start.png(4.6MB)
      • 图片文件 2_7_normal_start.png(4.6MB)
    • Folder Meun(Vol.4)
      • 图片文件 2_10_normal_start.png(4.8MB)
      • 图片文件 2_12_normal_start.png(4.9MB)
      • 图片文件 2_14_normal_start.png(5.2MB)
      • 图片文件 2_4_normal_start.png(5MB)
      • 图片文件 2_5_normal_start.png(4.9MB)
      • 图片文件 2_6_normal_start.png(5MB)
      • 图片文件 2_7_normal_start.png(5MB)
      • 图片文件 2_8_normal_start.png(5MB)
    • Folder 依媛奈緒 特典CD
      • 光盘镜(映)像文件 CDImage.cue(3KB)
      • 音频文件 CDImage.wav(460.1MB)
    • Folder 天女目瑛 特典CD
      • 光盘镜(映)像文件 CDImage.cue(359Bytes)
      • 音频文件 CDImage.wav(146MB)
    • Folder 春日野穹 特典CD
      • 光盘镜(映)像文件 CDImage.cue(359Bytes)
      • 音频文件 CDImage.wav(177.7MB)
    • Folder 渚一葉 特典CD
      • 光盘镜(映)像文件 CDImage.cue(2.4KB)
      • 音频文件 CDImage.wav(583.2MB)
    • 视频文件 [Mabors-Raws] [ヨスガノソラ 依媛奈緒] EP01-EP04(BDrip 1920x1080 HEVC-YUV420P10 FLAC x2 GB&BIG5).mkv(4.1GB)
    • 视频文件 [Mabors-Raws] [ヨスガノソラ 依媛奈緒] Menu(BDrip 1920x1080 HEVC-YUV420P10 FLAC).mkv(16.8MB)
    • 视频文件 [Mabors-Raws] [ヨスガノソラ 依媛奈緒] Menu1(BDrip 1920x1080 HEVC-YUV420P10 FLAC).mkv(15.4MB)
    • 视频文件 [Mabors-Raws] [ヨスガノソラ 依媛奈緒] 依媛奈緒ダイジェスト映像(BDrip 1920x1080 HEVC-YUV420P10 FLAC GB&BIG5).mkv(84.1MB)
    • 视频文件 [Mabors-Raws] [ヨスガノソラ 天女目瑛] EP01-EP04(BDrip 1920x1080 HEVC-YUV420P10 FLAC x3 GB&BIG5).mkv(4.1GB)
    • 视频文件 [Mabors-Raws] [ヨスガノソラ 天女目瑛] Menu(BDrip 1920x1080 HEVC-YUV420P10 FLAC).mkv(15.1MB)
    • 视频文件 [Mabors-Raws] [ヨスガノソラ 天女目瑛] Menu1(BDrip 1920x1080 HEVC-YUV420P10 FLAC).mkv(13.9MB)
    • 视频文件 [Mabors-Raws] [ヨスガノソラ 天女目瑛] 天女目瑛ダイジェスト映像(BDrip 1920x1080 HEVC-YUV420P10 FLAC GB&BIG5).mkv(64.1MB)
    • 视频文件 [Mabors-Raws] [ヨスガノソラ 春日野穹] Blu-ray依媛奈緒-DVD VOL.3 发售中(BDrip 1920x1080 HEVC-YUV420P10 FLAC).mkv(12.2MB)
    • 视频文件 [Mabors-Raws] [ヨスガノソラ 春日野穹] Blu-ray依媛奈緒-DVD VOL.3 发售前(BDrip 1920x1080 HEVC-YUV420P10 FLAC).mkv(12.2MB)
    • 视频文件 [Mabors-Raws] [ヨスガノソラ 春日野穹] Blu-ray天女目瑛-DVD VOL.2 发售中(BDrip 1920x1080 HEVC-YUV420P10 FLAC).mkv(10.2MB)
    • 视频文件 [Mabors-Raws] [ヨスガノソラ 春日野穹] Blu-ray天女目瑛-DVD VOL.2 发售前(BDrip 1920x1080 HEVC-YUV420P10 FLAC).mkv(10.2MB)
    • 视频文件 [Mabors-Raws] [ヨスガノソラ 春日野穹] Blu-ray春日野穹-DVD VOL.4 发售中(BDrip 1920x1080 HEVC-YUV420P10 FLAC).mkv(10.4MB)
    • 视频文件 [Mabors-Raws] [ヨスガノソラ 春日野穹] Blu-ray春日野穹-DVD VOL.4 发售前(BDrip 1920x1080 HEVC-YUV420P10 FLAC).mkv(10.3MB)
    • 视频文件 [Mabors-Raws] [ヨスガノソラ 春日野穹] Blu-ray渚一葉-DVD VOL.1 发售中(BDrip 1920x1080 HEVC-YUV420P10 FLAC).mkv(12.7MB)
    • 视频文件 [Mabors-Raws] [ヨスガノソラ 春日野穹] Blu-ray渚一葉-DVD VOL.1 发售前(BDrip 1920x1080 HEVC-YUV420P10 FLAC).mkv(12.7MB)
    • 视频文件 [Mabors-Raws] [ヨスガノソラ 春日野穹] EP01-EP05(BDrip 1920x1080 HEVC-YUV420P10 FLAC x3 GB&BIG5).mkv(5.5GB)
    • 视频文件 [Mabors-Raws] [ヨスガノソラ 春日野穹] Menu(BDrip 1920x1080 HEVC-YUV420P10 FLAC).mkv(18.1MB)
    • 视频文件 [Mabors-Raws] [ヨスガノソラ 春日野穹] Menu1(BDrip 1920x1080 HEVC-YUV420P10 FLAC).mkv(16.5MB)
    • 视频文件 [Mabors-Raws] [ヨスガノソラ 春日野穹] オープニング主題歌CD 发售中(BDrip 1920x1080 HEVC-YUV420P10 FLAC).mkv(16.5MB)
    • 视频文件 [Mabors-Raws] [ヨスガノソラ 春日野穹] オープニング主題歌CD 发售前(BDrip 1920x1080 HEVC-YUV420P10 FLAC).mkv(16.6MB)
    • 视频文件 [Mabors-Raws] [ヨスガノソラ 春日野穹] ヨスガノソラプロモーション映像(BDrip 1920x1080 HEVC-YUV420P10 FLAC).mkv(218.2MB)
    • 视频文件 [Mabors-Raws] [ヨスガノソラ 春日野穹] 春日野穹ダイジェスト映像(BDrip 1920x1080 HEVC-YUV420P10 FLAC GB&BIG5).mkv(79.3MB)
    • 视频文件 [Mabors-Raws] [ヨスガノソラ 春日野穹] 番組宣伝SPOT-放送中 15s(BDrip 1920x1080 HEVC-YUV420P10 FLAC).mkv(12.1MB)
    • 视频文件 [Mabors-Raws] [ヨスガノソラ 春日野穹] 番組宣伝SPOT-放送中 30s(BDrip 1920x1080 HEVC-YUV420P10 FLAC).mkv(20.3MB)
    • 视频文件 [Mabors-Raws] [ヨスガノソラ 春日野穹] 番組挿入歌CD 发售中(BDrip 1920x1080 HEVC-YUV420P10 FLAC).mkv(7.9MB)
    • 视频文件 [Mabors-Raws] [ヨスガノソラ 春日野穹] 番組挿入歌CD 发售前(BDrip 1920x1080 HEVC-YUV420P10 FLAC).mkv(7.8MB)
    • 视频文件 [Mabors-Raws] [ヨスガノソラ 渚一葉] EP01-EP04(BDrip 1920x1080 HEVC-YUV420P10 FLAC x3 GB&BIG5).mkv(4.6GB)
    • 视频文件 [Mabors-Raws] [ヨスガノソラ 渚一葉] Menu(BDrip 1920x1080 HEVC-YUV420P10 FLAC).mkv(16.5MB)
    • 视频文件 [Mabors-Raws] [ヨスガノソラ 渚一葉] Menu1(BDrip 1920x1080 HEVC-YUV420P10 FLAC).mkv(15.1MB)
    • 视频文件 [Mabors-Raws] [ヨスガノソラ 渚一葉] ノンテロップエンディング(BDrip 1920x1080 HEVC-YUV420P10 FLAC).mkv(79.3MB)
    • 视频文件 [Mabors-Raws] [ヨスガノソラ 渚一葉] ノンテロップオープニング(BDrip 1920x1080 HEVC-YUV420P10 FLAC).mkv(82MB)
    • 视频文件 [Mabors-Raws] [ヨスガノソラ 渚一葉] ノンテロップ番組挿入歌(BDrip 1920x1080 HEVC-YUV420P10 FLAC).mkv(41.1MB)
    • 视频文件 [Mabors-Raws] [ヨスガノソラ 渚一葉] 渚一葉ダイジェスト映像(BDrip 1920x1080 HEVC-YUV420P10 FLAC GB&BIG5).mkv(81MB)
    • 压缩文件 fonts.zip(33.7MB)
 

eMule资源

  Bytes
        0Bytes

网友评论(0)

正在加载评论,请稍候......
发表我的看法(评论内容长度最多允许 1000 字)
评论内容
验证码