ACG狗狗 | 动漫资源分享

基本信息

共享用户: qweasdshilk

发布时间: 2017/02/02 12:20:24

更新时间: 无更新

点击此处下载种子

使用磁力链下载

下载本站资源,您必须安装相应的P2P下载软件。我们推荐使用BitComet正式版下载BT资源,eMule下载电驴资源。

该资源由网友 qweasdshilk 提供,如果侵犯了您的权益请与我们联系。Email: i@acg.gg

Tracker信息

Announce:

http://tracker.acg.gg:2710/announce

Scrape:

http://tracker.acg.gg:2710/scrape

Announce list:
  • http://tracker.acg.gg:1578/announce
  • http://tracker.acg.gg:2710/announce
  • udp://191.96.249.23:6969/announce
  • udp://77.78.130.136:1337/announce
  • udp://151.80.120.113:2710/announce
  • http://74.82.52.209:6969/announce
  • udp://74.82.52.209:6969/announce
  • udp://9.rarbg.com:2710/announce
  • http://explodie.org:6969/announce
  • udp://explodie.org:6969/announce
  • http://tracker.dler.org:6969/announce
  • http://open.acgtracker.com:1096/announce
  • http://tracker.kisssub.org:2015/announce

资源介绍

 黑暗正义联盟Justice.League.Dark.2017.720p.BluRay.x264.CHS.ENG
General
Complete name                  : D:\zy\Justice.League.Dark.2017.720p.BluRay.x264.DTS-MT\黑暗正义联盟Justice.League.Dark.2017.720p.BluRay.x264.CHS.ENG.mp4
Format                         : MPEG-4
Format profile                 : Base Media
Codec ID                       : isom (isom)
File size                      : 473 MiB
Duration                       : 1 h 15 min
Overall bit rate mode          : Variable
Overall bit rate               : 872 kb/s
Encoded date                   : UTC 2017-02-01 21:42:12
Tagged date                    : UTC 2017-02-01 21:42:12
 
Video
ID                             : 1
Format                         : AVC
Format/Info                    : Advanced Video Codec
Format profile                 : High@L3.1
Format settings, CABAC         : Yes
Format settings, ReFrames      : 4 frames
Codec ID                       : avc1
Codec ID/Info                  : Advanced Video Coding
Duration                       : 1 h 15 min
Bit rate                       : 736 kb/s
Maximum bit rate               : 4 857 kb/s
Width                          : 1 280 pixels
Height                         : 720 pixels
Display aspect ratio           : 16:9
Frame rate mode                : Variable
Frame rate                     : 23.976 (24000/1001) FPS
Minimum frame rate             : 23.810 FPS
Maximum frame rate             : 24.390 FPS
Color space                    : YUV
Chroma subsampling             : 4:2:0
Bit depth                      : 8 bits
Scan type                      : Progressive
Bits/(Pixel*Frame)             : 0.033
Stream size                    : 399 MiB (84%)
Writing library                : x264 core 128 r2216+688+32 a17ff54 tMod [8-bit@4:2:0 X86]
Encoding settings              : cabac=1 / ref=3 / deblock=1:1:1 / analyse=0x3:0x133 / me=umh / subme=10 / psy=1 / fade_compensate=0.00 / psy_rd=0.30:0.00 / mixed_ref=1 / me_range=24 / chroma_me=1 / trellis=2 / 8x8dct=1 / cqm=0 / deadzone=21,11 / fast_pskip=1 / chroma_qp_offset=-2 / threads=6 / lookahead_threads=1 / sliced_threads=0 / nr=0 / decimate=1 / interlaced=0 / bluray_compat=0 / constrained_intra=0 / fgo=0 / bframes=3 / b_pyramid=2 / b_adapt=2 / b_bias=0 / direct=3 / weightb=1 / open_gop=0 / weightp=2 / keyint=250 / keyint_min=1 / scenecut=60 / intra_refresh=0 / rc_lookahead=60 / rc=crf / mbtree=1 / crf=21.8000 / qcomp=0.50 / qpmin=0 / qpmax=69 / qpstep=4 / ip_ratio=1.40 / aq=2:0.80
Encoded date                   : UTC 2017-02-01 21:41:24
Tagged date                    : UTC 2017-02-01 21:42:59
 
Audio
ID                             : 2
Format                         : AAC
Format/Info                    : Advanced Audio Codec
Format profile                 : LC
Codec ID                       : 40
Duration                       : 1 h 15 min
Bit rate mode                  : Variable
Bit rate                       : 130 kb/s
Maximum bit rate               : 188 kb/s
Channel(s)                     : 2 channels
Channel(s)_Original            : 6 channels
Channel positions              : Front: L C R, Side: L R, LFE
Sampling rate                  : 48.0 kHz
Frame rate                     : 46.875 FPS (1024 spf)
Compression mode               : Lossy
Stream size                    : 70.3 MiB (15%)
Encoded date                   : UTC 2017-02-01 21:42:37
Tagged date                    : UTC 2017-02-01 21:42:59
 

文件信息 文件总数:1,文件总大小:473.3MB

 
  • 视频文件 黑暗正义联盟Justice.League.Dark.2017.720p.BluRay.x264.CHS.ENG.mp4(473.3MB)
 

网友评论(0)

正在加载评论,请稍候......
发表我的看法(评论内容长度最多允许 1000 字)
评论内容
验证码